NEW TEAM FONDATION -  


NEW TEAM FONDATION Index du Forum

 Se connecter pour vérifier ses messages privés 
 FAQ
   Rechercher   Membres   Profil         Connexion 
 
Ncis New Orleans S01e15^1080p

 
Poster un nouveau sujet   Répondre au sujet    NEW TEAM FONDATION Index du Forum -> NewTeamFondation & vous... -> Entrainement de la NTF team
Sujet précédent :: Sujet suivant  
Auteur Message
dewgaell


Hors ligne

Inscrit le: 12 Mai 2016
Messages: 77
Localisation: Nantes

MessagePosté le: Ven 3 Juin - 00:36 (2016)    Sujet du message: Ncis New Orleans S01e15^1080p Répondre en citant




Ncis New Orleans S01e15 1080p > bit.ly/1t4W2cx







Ncis New Orleans S01e15 1080p

10cf746e54
? Verify as a good torrent (0) Fake 0 Password 0 Low quality 0 Virus 0 We need your feedback! Please vote, it's quick and anonymous. Supporting them is coroner, Dr. DenmarkDominican RepublicEast GermanyEcuadorEgyptEl SalvadorEquatorial GuineaEstoniaEthiopiaFaroe IslandsFederal Republic o. Size: 1,628 MBTorrent ContentsNCIS.New.Orleans.S01E15.Le.Carnivale.De.La.Mort.1080p.WEB-DL.DD5.1.H.264-CtrlHD[rarbg]NCIS.New.Orleans.S01E15.Le.Carnivale.De.La.Mort.1080p.WEB-DL.DD5.1.H.264-CtrlHD.mkv 1,628 MB NCIS.New.Orleans.S01E15.Le.Carnivale.De.La.Mort.1080p.WEB-DL.DD5.1.H.264-CtrlHD.srt 0 MB RARBG.com.txt 0 MB Please note that this page does not hosts or makes available any of the listed filenames. AwadhiAymaraAzerbaijaniBableBalineseBambaraBasqueBelarusianBengaliBerber languagesBhojpuriBicolanoBosnianBrazilian Sign Lan. NCIS New Orleans S01E15 Le Carnivale De La Mort 1080p WEB-DL DD5 1 H 264-CtrlHD[rarbg] Seeders : 43 Leechers : 38 Hash :710860B782AB433142B2D77EA223F2DED920E7D8 Added :1 Year+ in TV shows Size :1.59 GB NCIS New Orleans S01E15 Le Carnivale De La Mort 1080p WEB-DL DD5 1 H 264-CtrlHD[rarbg] Fast and Direct Download Download torrent Anonymous Download Magnet Link Add to bookmarksLogin or create a FREE account to enable this! Add to RSSLogin or create a FREE account to enable this! 0 Login or create a FREE account to vote for torrents! 0 Login or create a FREE account to vote for torrents! Trackers List Tracker NameLastCheckStatusSeedersLeechers Year+success4337udp://9.rarbg.me:2710/announce1 Year+success3738udp://9.rarbg.com:2710/announce1 Year+success3738 Year+success00 Year+success00udp://tracker.coppersurfer.tk:801 Year+success01 Year+success00 Year+success00 Year+success00udp://open.demonii.com:1337/announce1 Year+success00 Year+success00 Update trackers info Updating Torrent File Content (3 files) NCIS.New.Orleans.S01E15.Le.Carnivale.De.La.Mort.1080p.WEB-DL.DD5.1.H.264-CtrlHD[rarbg] NCIS.New.Orleans.S01E15.Le.Carnivale.De.La.Mort.1080p.WEB-DL.DD5.1.H.264-CtrlHD.mkv - 1.59 GB NCIS.New.Orleans.S01E15.Le.Carnivale.De.La.Mort.1080p.WEB-DL.DD5.1.H.264-CtrlHD.srt - 63.13 KB RARBG.com.txt - 34 bytes Description Video ID : 1 Format : AVC Format/Info : Advanced Video Codec Format profile : [emailprotected] Format settings, CABAC : Yes Format settings, ReFrames : 4 frames Codec ID : VMPEG4/ISO/AVC Duration : 40mn 44s Bit rate : 5 089 Kbps Width : 1 920 pixels Height : 1 080 pixels Display aspect ratio : 16:9 Frame rate mode : Constant Frame rate : 23.976 fps Color space : YUV Chroma subsampling : 4:2:0 Bit depth : 8 bits Scan type : Progressive Bits/(Pixel*Frame) : 0.102 Stream size : 1.45 GiB (91%) Language : English Default : Yes Forced : No Color primaries : BT.709 Transfer characteristics : BT.709 Matrix coefficients : BT.709 Color range : Limited Audio ID : 2 Format : AC-3 Format/Info : Audio Coding 3 Mode extension : CM (complete main) Format settings, Endianness : Big Codec ID : AAC3 Duration : 40mn 44s Bit rate mode : Constant Bit rate : 384 Kbps Channel(s) : 6 channels Channel positions : Front: L C R, Side: L R, LFE Sampling rate : 48.0 KHz Bit depth : 16 bits Compression mode : Lossy Stream size : 112 MiB (7%) Language : English Default : Yes Forced : No Related torrents Torrent NameAddedSizeSeedLeechHealthNCIS New Orleans S01E15 Le Carnivale De La Mort 720p WEB-DL DD5 1 H 264-CtrlHD[r.1 Year+ - in TV shows 1.26 GB1211NCIS New Orleans S01E15 Le Carnivale de la x264-KILLERS[ettv]1 Year+ - in TV shows 335.95 MB00NCIS New Orleans S01E14 Careful What You Wish For 1080p WEB-DL DD5 1 H 264-CtrlH.1 Year+ - in TV shows 1.64 GB00NCIS New Orleans S01E15 Le Carnivale de HDTV x264-KILLERS[ettv]1 Year+ - in TV shows 355.95 MB00 Comments (0 Comments) Latest Searches DEVIOUS MAIDS S01E01 raised by wolves uk the lovers 2015 dragon ball super vose Royal Wedding (1951) men at work mp3 leaves of life french son of anarchy my daughter fuckin blackzilla jacob and jos louis theroux weird weekend Attack of the Clones swesub the mixtape about nothing aikido and the dynamic sphere saga vol.. Jheberg = MEGA UptoBox Ifichier FREE Hugefiles. Torrentz Search myTorrentz Profile Help . PakistanPalestinePanamaPapua New GuineaParaguayPeruPhilippinesPolandPortugalPuerto RicoQatarRepublic of Macedo.

NCIS New Orleans S01E15 1080p WEB-DL DD5 1 H 264-CtrlHDSharewskinswskinsPosts : 7012Points : 21036Reputation : 0Join date : 2014-12-24Post n1 NCIS New Orleans S01E15 1080p WEB-DL DD5 1 H 264-CtrlHDwskins on Fri Feb 27, 2015 5:05 amNCIS New Orleans S01E15 1080p WEB-DL DD5 1 H 264-CtrlHD 1.59 GBTV Name: NCIS New Orleans S01 E15TV Info: The NCIS's New Orleans field office investigates criminal cases affecting military personnel in The Big Easy, a city known for its music, entertainment and decadence. HOME BROWSE TOP TORRENTS LATEST TORRENTS SEARCH CLOUD FAQ CONTACT . Quick Browse Movies TV shows Music Games Applications Anime Other . .. Leave a Reply Cancel reply Name (Required) Email (Required) .. NCIS: New Orleans S01E15 (2014) Dal nzev 1/15 Uloil badboy.majkl uloeno: 26.2.2015 StaenoTento msc: 0 Celkem: 37 Naposledy: 30.11.2015 Dal infoPoet CD: 1Velikost: 1 706 573 539 B typ titulk: srt FPS: - Verze pro NCIS.New.Orleans.S01E15.Le.Carnivale.De.La.Mort.1080p.WEB-DL.DD5.1.H.264-CtrlHD Dal verze Nhled zobrazit nhled Poznmka Peklad: speedyMPS Peas: badboy.majkl www.edna.cz/ncis-new-orleans www.ncis.cz Veker opravy a pravy nechte na mn, peas pouze po dohod. Warez-BBListingsMoviesTV Shows.

toontrack mid packAriana Grande - Problemtiziano ferro nessuno e solosaint seiya sanctuarylove and hip hop s05e02led zeppelin all that glitters is goldcisco asa security appliancealone in the darkscavenger hunt 1979introduction to bioinformatics


Revenir en haut
Publicité






MessagePosté le: Ven 3 Juin - 00:36 (2016)    Sujet du message: Publicité

PublicitéSupprimer les publicités ?
Revenir en haut
Montrer les messages depuis:   
Poster un nouveau sujet   Répondre au sujet    NEW TEAM FONDATION Index du Forum -> NewTeamFondation & vous... -> Entrainement de la NTF team Toutes les heures sont au format GMT + 1 Heure
Page 1 sur 1

 
Sauter vers:  

Portail | Index | Panneau d’administration | créer un forum gratuit | Forum gratuit d’entraide | Annuaire des forums gratuits | Signaler une violation | Conditions générales d'utilisation
Powered by phpBB Fr © 2001 phpBB Group
Traduction par : phpBB-fr.com
Template RedBlack crée par SoSo : SoSophpBB

Reproduction INTERDITE